#TITLE:Heaven;
#SUBTITLE:;
#ARTIST:Big Mama;
#TITLETRANSLIT:Heaven;
#SUBTITLETRANSLIT:;
#ARTISTTRANSLIT:Big Mama;
#CREDIT:Thu Bay , 22-11-2008;
#BANNER:Heaven-bn.png;
#BACKGROUND:Heaven-bg.png;
#LYRICSPATH:;
#CDTITLE:pm4cd.png;
#MUSIC:Heaven.mp3;
#OFFSET:0.020;
#SAMPLESTART:45.380;
#SAMPLELENGTH:20.000;
#SELECTABLE:YES;
#BPMS:0.000=127.010;
#STOPS:;
#BGCHANGES:;
// cache tags:
#FIRSTBEAT:16.875;
#LASTBEAT:417.000;
#SONGFILENAME:Songs/Music V.I.P ^_^/Heaven - Big Mama/Heaven.sm;
#HASMUSIC:1;
#HASBANNER:1;
#MUSICLENGTH:200.625;
// end cache tags

//---------------dance-single - ----------------
#NOTES:
     dance-single:
     :
     Hard:
     11:
     0.849,1.000,1.000,0.145,0.302,825.000,311.000,29.000,0.000,43.000:
0000
0000
0000
0000
,
0000
0000
0000
0000
,
0000
0000
0000
0000
,
0000
0000
0000
0000
,
0000
0000
0000
0000
0000
0000
0000
0010
0100
1000
0000
0000
0000
0000
0000
0000
0011
0000
0000
0000
0000
0000
0000
0010
0100
1000
0000
0000
0000
0000
0000
0000
,
1100
0000
0000
0000
0000
0000
0000
0100
0010
0001
0000
0000
0000
0000
0000
0000
1010
0000
0000
0000
0000
0000
0000
1000
0100
0010
0000
0000
0000
0000
0000
0000
,
0101
0000
0000
0000
0000
0000
0000
0100
1010
0001
1000
0000
1000
0000
1000
0000
1011
0000
1000
0000
1000
0000
1000
0001
1010
0100
1000
0000
1000
0000
1000
0000
,
1101
0000
1000
0000
1000
0000
1000
0100
1010
0001
1000
0000
1000
0000
1000
0000
1110
0000
1000
0000
1000
0000
1000
0001
1010
0100
1000
0000
1000
0000
1000
0000
,
1011
1000
1000
1000
0110
0000
0001
0000
1100
0000
0010
0000
0101
0000
0100
0000
,
0011
1000
0110
0010
1010
0001
0101
0010
,
0011
1000
1100
1000
0101
0001
0110
0100
,
1010
0001
1100
0001
0101
1000
0011
0010
,
1001
0100
0110
0001
1010
1000
0101
0010
,
0011
0100
1010
1000
0101
0001
0110
0001
,
0011
0010
1100
1000
0110
0001
1001
0010
,
0101
0000
1000
0000
1101
0001
0011
0001
1101
0001
0101
0001
1101
0001
0011
0001
,
1101
0001
1001
0001
0100
0000
0010
0000
1100
0000
0001
0000
0100
0000
0001
0000
,
0011
0100
0010
0001
1010
0100
0001
0010
,
0101
1000
0010
0100
0011
0010
1000
0001
,
1100
0010
0001
0100
1010
0001
0100
0001
,
0011
1000
1000
0010
0110
0001
0010
0100
,
1010
0010
0001
0100
0110
1000
0010
0100
,
1010
1000
0100
0001
0110
1000
0001
0010
,
1001
0000
0100
0000
1010
1000
1001
1000
1011
1000
1100
1000
1001
1000
1010
1000
,
1011
1000
1001
1000
0110
0000
0001
0000
1100
0000
0010
0000
0101
0000
0100
0000
,
0011
1000
0110
0010
1010
0001
0101
0010
,
0011
1000
1100
1000
0101
0001
0110
0100
,
1010
0001
1100
0001
0101
1000
0011
0010
,
1001
0100
0110
0001
1010
1000
0101
0010
,
0011
0100
1010
1000
0101
0001
0110
0001
,
0011
0010
1100
1000
0110
0001
1001
0010
,
0101
0000
1000
0000
1101
0001
0101
0001
1101
0001
1001
0001
1101
0001
0011
0001
,
1101
0001
0011
0001
1100
0000
0000
0000
1010
0000
0000
0000
0101
0000
0000
0000
,
0011
0110
1010
0011
,
0101
0000
1000
0100
0011
0010
1000
0001
,
1100
0010
0001
0100
1010
0001
0100
0001
,
0011
1000
1000
0010
0110
0001
0010
0100
,
1010
0010
0001
0100
0110
1000
0010
0100
,
1010
1000
0100
0001
0110
1000
0001
0010
,
1001
0000
0100
0000
1010
1000
1001
1000
1011
1000
1100
1000
1001
1000
1010
1000
,
1011
1000
1001
1000
0010
0000
0100
0000
0011
0000
1000
0000
0010
0000
0100
0000
,
1020
0000
1000
0001
1130
0001
0100
0001
,
2001
0000
0010
0100
3101
0010
1000
0010
,
1200
0001
0010
0001
1310
0010
0100
1000
,
0011
0100
0010
0001
1100
0010
1000
0001
,
1010
0001
0100
0010
1001
0100
0001
0010
,
1100
0001
1000
0100
1010
0100
0010
0001
,
0110
1000
0010
0000
1100
0000
0001
0000
,
1010
0100
1001
0010
1100
0100
0101
0001
,
1100
0010
0110
1000
1100
0010
0101
1000
,
1001
0010
0110
1000
1100
0001
0101
0010
,
1010
0100
0101
0010
0011
0100
1100
0010
,
0110
0001
1001
0010
0101
0010
1100
0100
,
0011
1000
0110
0001
1010
0010
1001
0001
,
0110
0001
1010
0100
1001
0010
1100
0100
,
0011
0000
1000
0000
1010
0010
0011
0010
1011
0010
1010
0010
0111
0010
1010
0010
,
1110
0010
0011
0010
0100
0010
0001
0000
1100
0000
0010
0000
0100
0000
0001
0000
,
1010
0001
0100
1000
0101
0010
0001
1000
,
0110
0001
1000
0100
1010
0100
0001
0010
,
1100
0001
0100
0010
0101
0010
0001
1000
,
0110
0001
1000
0100
1001
0010
0001
0100
,
0011
1000
0010
0001
1010
0100
0010
0001
,
1100
0000
0010
0000
0100
0010
0001
0010
1100
0010
0100
1000
0001
0010
0100
0010
,
0101
0010
0100
0001
1010
1000
1001
1000
1011
1000
1100
1000
1001
1000
1010
1000
,
1011
1000
1001
1000
0110
0000
0001
0000
1100
0000
0010
0000
0101
0000
0100
0000
,
0011
1000
0110
0010
1010
0001
0101
0010
,
0011
1000
1100
1000
0101
0001
0110
0100
,
1010
0001
1100
0001
0101
1000
0011
0010
,
1001
0100
0110
0001
1010
1000
0101
0010
,
0011
0100
1010
1000
0101
0001
0110
0001
,
0011
0010
1100
1000
0110
0001
1001
0010
,
0101
0000
1000
0000
1101
0001
0101
0001
1101
0001
1001
0001
1101
0001
0011
0001
,
1101
0001
0011
0001
2000
0000
0000
0000
0000
0000
0000
0000
0000
0000
0000
0000
,
0000
3200
0000
0000
,
0000
0320
0000
0000
,
0000
0032
0000
0000
,
0000
2103
0010
0001
,
0100
3210
0001
1000
,
0010
0321
1000
0100
,
0001
0000
0000
0000
1032
1000
1000
1000
1000
1000
1000
1000
1000
1000
1000
1000
,
1000
1000
1000
1000
0113
0000
0001
0000
1100
0000
0010
0000
0101
0000
0100
0000
,
0011
1000
0110
0010
1010
0001
0101
0010
,
0011
1000
1100
1000
0101
0001
0110
0100
,
1010
0001
1100
0001
0101
1000
0011
0010
,
1001
0100
0110
0001
1010
1000
0101
0010
,
0011
0100
1010
1000
0101
0001
0110
0001
,
0011
0010
1100
1000
0110
0001
1001
0010
,
0101
1000
2112
0010
0110
0100
0110
0010
,
0110
0000
0100
0000
3113
1000
1000
0000
0110
0001
0001
0000
0110
1000
1000
0000
,
0110
0001
0001
0000
1100
1000
1000
0000
0011
0001
0001
0000
1100
1000
1000
0000
,
0011
0001
0001
0000
1100
0001
0001
0000
0011
1000
1000
0000
1100
0001
0001
0000
,
0011
1000
1000
0000
0110
0001
0001
0000
0110
1000
1000
0000
0110
0001
0001
0000
,
0110
1000
1000
0000
0110
0000
0001
0000
1100
0000
0010
0000
0101
0000
0100
0000
,
0011
1000
0110
0010
1010
0001
0101
0010
,
0011
1000
1100
1000
0101
0001
0110
0100
,
1010
0001
1100
0001
0101
1000
0011
0010
,
1001
0100
2000
0000
0100
0000
3020
0000
,
0001
0230
1000
0302
,
0010
2003
0100
3020
,
0001
0230
1000
0302
,
0010
2003
0100
3020
,
0001
0230
1000
0302
,
0010
2003
0100
3020
,
0001
2230
0000
0000
,
0000
3300
0000
0000
;
